/ Forside/ Interesser / Fritid / Film / Spørgsmål
Login
Glemt dit kodeord?
Brugernavn 

Kodeord  


Reklame
Top 10 brugere
Film
#NavnPoint
IceCap 9240
tedd 6796
refi 6795
ans 6773
Klaudi 5447
dova 4574
Nordsted1 3973
o.v.n. 3080
ThomasCSR 2881
10  granner01 2400
SYBIL m/ Sally Field
Fra : snerose
Vist : 3402 gange
100 point
Dato : 27-05-11 02:18

Hej venner - håbr virkelig på hjælp her!

Nu har Sally Field altid gjort stort indtryk på mig, men efter denne filmatisering af en autentisk bog,, hvor hun spiller en kvinde med personlighedsspaltning og vist nok kommer op på 10-12 personligheder, så MÅ jeg eje en DVD med filmen!

Spørgsmålet er, om det kan lade sig gøre, for jeg har søgt på "Sybil" og jeg kan åbenbart downloade filmen, hvilket jeg ikke er så meget for, for jeg kender jo ikke siderne..... Så - er der nogen der ved, hvor jeg kan købe en almindelig dvd med "Sybil", hvor Sally Field har hovedrollen?

Det kan lige ekstra nævnes, at bogen SKAL læses! Den er lang og kan virke noget trang, men hold op, hvor er den gribende - og meget grim!

Jeg har jo læst bogen, men intet kan gøre det op med Sally Fields præstationer. Jeg ved, den blev filmatiseret i omkring 1976, men jeg så den engang i 80'erne, hvor tv 1000 første gang gjorde sin entre (det var dengang man havde piratdekodere)

Håber, at der nogen der kan hjælpe, for jeg MÅ se den igen! Men ikke fra en eller anden amerikansk side.... og slet ikke på min pc!

Tak fo hjælpen og god weekend til jer alle

 
 
Accepteret svar
Fra : nomore

Modtaget 100 point
Dato : 27-05-11 05:16

Den kan købes på
http://www.laserdisken.dk
Filmens specifikationer

Original titel: Sybil
Instruktør: Daniel Petrie

Medvirkende:
Cornelia Wilbur Joanne Woodward
Sybil Dorsett Sally Field
Richard J. Loomis Brad Davis
Hattie Martine Bartlett
Frieda Dorsett Jane Hoffman
Dr. Quinoness Charles Lane
Grandma Dorsett Jessamine Milner
Willard Dorsett William Prince
Miss Penny Penelope Allen
Cam Camila Ashland
Vis alle medvirkende...


Stikord: TV-film
Mental sygdom
Personlighedsspaltning
-----------------------------
Citat
jeg kan åbenbart downloade filmen, hvilket jeg ikke er så meget for, for jeg kender jo ikke siderne

Og du er bange for ???????
hvis der er links til en (fildelings) server, kan du som regel rolig hente den ned.

Ellers er den her
http://peecee.dk/upload/view/309032

der står det er en 1976 udgave, men nærlæs kommentarerne og den er med Sally




Kommentar
Fra : nomore


Dato : 27-05-11 05:42

http://www.gratisimage.dk/image-B18D_4DDF21C9.jpg
har lge hentet den og den er ikke i bedste kvalitet
General
Complete name : C:\Documents and Settings\Administrator\Dokumenter\Downloads\Compressed\new.avi
Format : AVI
Format/Info : Audio Video Interleave
File size : 698 MiB
Duration : 3h 7mn
Overall bit rate : 522 Kbps
Writing application : FairUse Wizard - http://fairusewizard.com
Writing library : The best and REALLY easy backup tool

Video
ID : 0
Format : MPEG-4 Visual
Format profile : AdvancedSimple@L5
Format settings, BVOP : Yes
Format settings, QPel : No
Format settings, GMC : No warppoints
Format settings, Matrix : Default (MPEG)
Codec ID : XVID
Codec ID/Hint : XviD
Duration : 3h 7mn
Bit rate : 384 Kbps
Width : 352 pixels
Height : 256 pixels
Display aspect ratio : 1.375
Frame rate : 23.976 fps
Resolution : 24 bits
Colorimetry : 4:2:0
Scan type : Progressive
Bits/(Pixel*Frame) : 0.178
Stream size : 514 MiB (74%)
Writing library : XviD 1.1.0 Beta2 (UTC 2005-04-04)

Audio
ID : 1
Format : MPEG Audio
Format version : Version 1
Format profile : Layer 3
Format_Settings_Mode : Joint stereo / MS Stereo
Codec ID : 55
Codec ID/Hint : MP3
Duration : 3h 7mn
Bit rate mode : Constant
Bit rate : 128 Kbps
Channel(s) : 2 channels
Sampling rate : 48.0 KHz
Resolution : 16 bits
Stream size : 171 MiB (25%)
Alignment : Aligned on interleaves
Interleave, duration : 42 ms (1.00 video frame)
Interleave, preload duration : 504 ms
Writing library : LAME3.96r
Encoding settings : -m j -V 4 -q 2 -lowpass 17.5 -b 128


Godkendelse af svar
Fra : snerose


Dato : 29-05-11 07:57

Tak for svaret nomore.

Kommentar
Fra : snerose


Dato : 29-05-11 08:10

Øv, har jo lige opdaget, at man ikke kan få den med danske undertekster....

Du har følgende muligheder
Eftersom du ikke er logget ind i systemet, kan du ikke skrive et indlæg til dette spørgsmål.

Hvis du ikke allerede er registreret, kan du gratis blive medlem, ved at trykke på "Bliv medlem" ude i menuen.
Søg
Reklame
Statistik
Spørgsmål : 177356
Tips : 31960
Nyheder : 719565
Indlæg : 6407417
Brugere : 218867

Månedens bedste
Årets bedste
Sidste års bedste